Catégories

Liens rapides

Filtrer par
Genres/Epoques/Pays/Notes

Année de sortie :

Action
Animation
Arts Martiaux
Aventure
Biopic
Comédie dramatique
Comédie musicale
Comédie
Divers
Documentaire
Drame
Epouvante-horreur
Espionnage
Famille
Fantastique
Guerre
Historique
Musical
Péplum
Policier
Romance
Science fiction
Thriller
Western

Membre

Annonces

Remarque


La qualité audio/vidéo de ce film est très variable, consultez cette page (cliquez ici) pour avoir les détails des différentes qualités ...
Enola Holmes
Qualité HDLight 1080p MULTI

Enola Holmes



Origine du film :USARéalisateurs : Harry Bradbeer
Genre :Policier, judiciaireCritiques Spectateurs : 3.3
Note spectateur : - 3.3/5



Enola, la jeune sœur de Sherlock Holmes, met ses talents de détective à l'épreuve pour tenter de retrouver sa mère disparue et déjouer une dangereuse conspiration. NFO Show/hide text General Unique ID : 37384385941156228009884239739221774305 (0x1C1FF8888E04679AD6073E2FED9D0FE1) Complete name : C:Enola.Holmes.2020.MULTi.1080p.WEBRip.Light.x264-DucKy.mkv Format : Matroska Format version : Version 4 File size : 2.38 GiB Duration : 2 h 3 min Overall bit rate : 2 747 kb/s Movie name : PREUMS - Enola Holmes (2020) Encoded date : UTC 2020-09-23 09:11:59 Writing application : mkvmerge v50.0.0 ('Awakenings') 64-bit Writing library : libebml v1.4.0 + libmatroska v1.6.2 Video ID : 1 Format : AVC Format/Info : Advanced Video Codec Format profile : [email protected] Format settings : CABAC / 2 Ref Frames Format settings, CABAC : Yes Format settings, Reference frames : 2 frames Codec ID : V_MPEG4/ISO/AVC Duration : 2 h 3 min Bit rate : 2 500 kb/s Width : 1 920 pixels Height : 806 pixels Display aspect ratio : 2.40:1 Frame rate mode : Constant Frame rate : 24.000 FPS Color space : YUV Chroma subsampling : 4:2:0 Bit depth : 8 bits Scan type : Progressive Bits/(Pixel*Frame) : 0.067 Stream size : 2.15 GiB (91%) Writing library : x264 core 161 r3018 Encoding settings : cabac=1 / ref=2 / deblock=1:0:0 / analyse=0x3:0x133 / me=hex / subme=7 / psy=1 / psy_rd=1.00:0.00 / mixed_ref=0 / me_range=16 / chroma_me=1 / trellis=1 / 8x8dct=1 / cqm=0 / deadzone=21,11 / fast_pskip=1 / chroma_qp_offset=-2 / threads=12 / lookahead_threads=2 / sliced_threads=0 / nr=0 / decimate=1 / interlaced=0 / bluray_compat=0 / constrained_intra=0 / bframes=0 / weightp=2 / keyint=240 / keyint_min=24 / scenecut=40 / intra_refresh=0 / rc_lookahead=40 / rc=2pass / mbtree=1 / bitrate=2500 / ratetol=1.0 / qcomp=0.60 / qpmin=10 / qpmax=69 / qpstep=4 / cplxblur=20.0 / qblur=0.5 / vbv_maxrate=3000 / vbv_bufsize=24000 / nal_hrd=none / filler=0 / ip_ratio=1.40 / aq=3:1.00 Language : English Default : Yes Forced : No Color range : Limited Color primaries : BT.709 Transfer characteristics : BT.709 Matrix coefficients : BT.709 Audio #1 ID : 2 Format : AAC LC Format/Info : Advanced Audio Codec Low Complexity Codec ID : A_AAC-2 Duration : 2 h 3 min Bit rate : 128 kb/s Channel(s) : 2 channels Channel layout : L R Sampling rate : 48.0 kHz Frame rate : 46.875 FPS (1024 SPF) Compression mode : Lossy Delay relative to video : -43 ms Stream size : 113 MiB (5%) Title : French 2.0 Language : French Default : Yes Forced : No Audio #2 ID : 3 Format : AAC LC Format/Info : Advanced Audio Codec Low Complexity Codec ID : A_AAC-2 Duration : 2 h 3 min Bit rate : 127 kb/s Channel(s) : 2 channels Channel layout : L R Sampling rate : 48.0 kHz Frame rate : 46.875 FPS (1024 SPF) Compression mode : Lossy Delay relative to video : -21 ms Stream size : 113 MiB (5%) Title : English 2.0 Language : English Default : No Forced : No Text #1 ID : 4 Format : UTF-8 Codec ID : S_TEXT/UTF8 Codec ID/Info : UTF-8 Plain Text Duration : 2 h 1 min Bit rate : 1 b/s Count of elements : 54 Stream size : 1.35 KiB (0%) Title : Forced Language : French Default : Yes Forced : No Text #2 ID : 5 Format : UTF-8 Codec ID : S_TEXT/UTF8 Codec ID/Info : UTF-8 Plain Text Duration : 2 h 1 min Bit rate : 49 b/s Count of elements : 1578 Stream size : 44.1 KiB (0%) Title : French Full Language : French Default : No Forced : No




Qualité/Format/Langue : HDLight 1080p MULTI




Vous n'avez pas encore acheté ce film ? Rendez vous sur:

OU
La loi française vous autorise à télécharger un fichier seulement si vous en possédez l'original.
Vous n'arrivez pas à trouver un vendeur ? Faites une recherche sur Google.


Vous l'avez déjà? Passer au téléchargement




Publié : 24-09-2020, 10:56
Telecharger Enola Holmes nouveau, Enola Holmes DVDRIP, Enola Holmes ZoneTelechargement ws, Enola Holmes uptobox, Enola Holmes Zone Telechargement, film Enola Holmes hd720 telechargement
3.3
Policier, judiciaireCritiques Spectateurs : 3.3
3.3
Policier, judiciaireCritiques Spectateurs : 3.3
2.2
Drame,Historique,Romance,
2019-03-20
1,9
Action,
2019-05-28



ZoneTelechargement ws n'héberge aucun fichier. La loi française vous autorise à télécharger un fichier seulement si vous en possédez l'original. Ni ZoneTelechargement ws, ni nos hébergeurs, ni personne ne pourront êtres tenu responsables d'une mauvaise utilisation de ce site.